5x10 Vikingos
2x11 MacGyver

Padmaavat (2018) 720p - DesiPre-Rip - Hindi - x264 - MP3 - Mafiak...

  • Category Movies
  • Type Bollywood
  • Language Hindi
  • Total size 1.2 GB
  • Uploaded By Mafiaking
  • Downloads 69192
  • Last checked 3 weeks ago
  • Date uploaded 4 weeks ago
  • Seeders 574
  • Leechers 424

Padmaavat

Drama

Rani Padmavati - the wife of Maharawal Ratan Singh, is known for her beauty and valour in 13th century India. She captures the fancy of the reigning Sultan of Delhi, the tyrant Alauddin Khilji, who becomes obsessed with her and goes to great lengths to fulfill his greed.

Infohash : B958143BDE85D5427C929350D7C76792C02751D2












Ratings: 7.3/10

Genere: Action, Drama, History

General
Complete name : Padmaavat (2018) 720p - DesiPre-Rip - Hindi - x264 - MP3 - Mafiaking - M2Tv.mkv
Format : Matroska
Format version : Version 4 / Version 2
File size : 1.18 GiB
Duration : 2 h 36 min
Overall bit rate : 1 081 kb/s
Movie name : Padmaavat (2018) 720p - DesiPre-Rip - Hindi - x264 - MP3 - Mafiaking - M2Tv

Video
ID : 1
Format : AVC
Codec ID : V_MPEG4/ISO/AVC
Duration : 2 h 36 min
Bit rate : 951 kb/s
Width : 1 280 pixels
Height : 544 pixels
Display aspect ratio : 2.35:1
Frame rate mode : Constant
Frame rate : 25.000 FPS
Stream size : 1.04 GiB (88%)
Title : Mafiaking
Language : Hindi
Default : Yes
Forced : No

Audio
ID : 2
Format : MPEG Audio
Codec ID/Hint : MP3
Duration : 2 h 36 min
Bit rate mode : Constant
Bit rate : 128 kb/s
Channel(s) : 2 channels
Stream size : 143 MiB (12%)
Language : Hindi
Default : Yes
Forced : No

SAMPLE WITH IN TORRENT

[/quote]


**To View Image In Full Size Click on Thumbnails**

Files:

Padmaavat 2018 720p DesiPre-Rip x264 MP3 Mafiaking M2Tv
  • Padmaavat 2018 720p DesiPre-Rip x264 MP3 Mafiaking M2Tv.mkv (1.2 GB)
  • RegistrationOpen on NBTorrents.txt (0.1 KB)
  • SaMple.mkv (5.9 MB)
  • To keep M2Tv going please read.txt (0.2 KB)
  • Torrent Downloaded From NextBit Torrents.txt (0.0 KB)

Comments

Code:

  • udp://tracker.coppersurfer.tk:6969/announce
  • udp://thetracker.org:80/announce
  • udp://tracker.leechers-paradise.org:6969/announce
  • udp://eddie4.nl:6969/announce
  • udp://zer0day.ch:1337/announce
  • udp://tracker.sktorrent.net:6969/announce
  • udp://9.rarbg.me:2710/announce
  • udp://9.rarbg.to:2710/announce
  • udp://torrent.gresille.org:80/announce
  • udp://tracker.aletorrenty.pl:2710/announce
  • udp://tracker.piratepublic.com:1337/announce
  • udp://tracker.opentrackr.org:1337/announce
  • udp://explodie.org:6969/announce
  • udp://p4p.arenabg.ch:1337/announce