Staffel 2
Staffel 1

18+ The Wilde Wedding 2017 Movies BRRip x264 5.1 with Sample ☻rDX...

  • Category Movies
  • Type h.264/x264
  • Language English
  • Total size 814.3 MB
  • Uploaded By nehalpuja
  • Downloads 714
  • Last checked 1 week ago
  • Date uploaded 1 week ago
  • Seeders 66
  • Leechers 70

Infohash : DB2CDF6327B2C953A829715A4F967CB22DC28D5D

18+ The Wilde Wedding 2017 Movies BRRip x264 5.1 with Sample ☻rDX☻
===============================================================================================

SCREEN SHOTS:



or

http://postimage.co.nr/2018/2/car/1.html

File size : 806 MiB
Duration : 1 h 35 min
Overall bit rate mode : Constant
Overall bit rate : 1 176 kb/s
Movie name : 18+ The Wilde Wedding 2017 Movies BRRip x264 5.1 ☻rDX☻

Video
ID : 2
Format : AVC
Format/Info : Advanced Video Codec
Format profile : [email protected]
Format settings, CABAC : Yes
Format settings, ReFrames : 2 frames
Format settings, GOP : M=1, N=12
Codec ID : V_MPEG4/ISO/AVC
Duration : 1 h 35 min
Bit rate mode : Constant
Bit rate : 729 kb/s
Width : 720 pixels
Height : 302 pixels
Display aspect ratio : 2.40:1
Frame rate mode : Constant
Frame rate : 23.976 (24000/1001) FPS
Color space : YUV
Chroma subsampling : 4:2:0
Bit depth : 8 bits
Scan type : Progressive
Bits/(Pixel*Frame) : 0.140
Stream size : 483 MiB (60%)
Title : ☻rDX☻
Default : Yes
Forced : No

Audio
ID : 1
Format : AC-3
Format/Info : Audio Coding 3
Mode extension : CM (complete main)
Format settings, Endianness : Big
Codec ID : A_AC3
Duration : 1 h 35 min
Bit rate mode : Constant
Bit rate : 448 kb/s
Channel(s) : 6 channels
Channel positions : Front: L C R, Side: L R, LFE
Sampling rate : 48.0 kHz
Frame rate : 31.250 FPS (1536 spf)
Bit depth : 16 bits
Compression mode : Lossy
Stream size : 307 MiB (38%)
Default : Yes
Forced : No



IMDB : http://www.imdb.com/title/tt5066056

Files:

18+ The Wilde Wedding 2017 Movies BRRip x264 5.1 with Sample ☻rDX☻
  • Sample ~ 18+ The Wilde Wedding 2017 Movies BRRip x264 5.1 ☻rDX☻.mkv (8.1 MB)
  • 18+ The Wilde Wedding 2017 Movies BRRip x264 5.1 ☻rDX☻.mkv (806.2 MB)

There are currently no comments. Feel free to leave one :)

Code:

  • udp://tracker.coppersurfer.tk:6969/announce
  • udp://tracker.openbittorrent.com:80/announce
  • udp://glotorrents.pw:6969/announce
  • udp://tracker.publicbt.com:80/announce
  • http://retracker.krs-ix.ru/announce
  • udp://tracker.pomf.se:80/announce
  • udp://explodie.org:6969/announce
  • http://mgtracker.org:2710/announce
  • http://tracker.aletorrenty.pl:2710/announce
  • http://tracker.btcake.com/announce
  • udp://tracker.openbittorrent.com:80/announce
  • udp://tracker.leechers-paradise.org:6969/announce
  • udp://coppersurfer.tk:6969/announce